Ancient Astronauts - HEART OF THE FUTURE [2009]

картинка, оставленная пользователем

01. Beatstalkers Anthem - The Beatstalkers (Foot Forward Music)
02. MCs Act Like They Don’t Know - KRS-1 (Classic Re-Edits)
03. I Wanna Make You Move - Freddie Cruger feat. Anthony David (Tru Thoughts Recordings)
04. Catatonia - Connie Price & The Keystones feat. Percee P & Wild Child (Ubiquity Records)
05. Edgelactic - The Beatstalkers (Foot Forward Music)
06. Classic - Ancient Astronauts feat. The Pharcyde (ESL Music/Switchstance Recordings)
07. Insight - Fort Knox 5 feat. Asheru (Fort Knox Recordings)
08. The Roc Boys Get Back - Jay’s Soul Connection (Amsterdam Gangster Music)
09. Funky Furious - DJ Aeon Seven (Modern Funk/Freestyle Records)
10. The Tide Is High - The Beatstalkers (Foot Forward Music)
11. 7 Nation Army (Grant Phabao Remix) - Nostalgia 77 feat. Alice Russell (Tru Thoughts Recordings)
12. Shine Eye Gal (Chase The Remix) - Michael Rose feat. Shabba Ranks (Like Dat Records)
13. Don’t Worry ’bout Romie - Beenie Man vs. Bob Marley (Jiggy Records)
14. Dukku Dukku (The Beatstalkers Remix) - Keith & Tex feat. Shabba Ranks (Fizzle Recordings)
15. Tequilimba - Barrio Katz (Planet Blend Records)
16. Blowing Up The Spot (Ancient Astronauts Remix) - Fort Knox 5 (Fort Knox Recordings)
17. Everybody - Ancient Astronauts (ESL Music/Switchstance Recordings)
18. The Outsider - Lack Of Afro (Freestyle Records)
19. Caffeine (DJ Format’s Getaway Remix) - The Quartertones (Freestyle Records)
20. Heard It Through The Grapevine - The Beatstalkers (Foot Forward Music)
21. Keep On Looking (Kenny Dope Remix) - Sharon Jones & The Dap Kings (Soulplex Recordings)
22. D’azour Cotaz (Ancient Astronauts Remix) - Timewarp Inc. (Timewarp Music)

Ссылка:
http://ifolder.ru/12868293
http://ifolder.ru/12868294
http://rapidshare.com/files/249714877/ancientastronautsdjmix.zip


Цитата:
The production duo of Ancient Astronauts are getting ready to release an artist album on ESL, June 9th - We Are To Answer. They have previously remixed the likes of Up Bustle & Out, Ladybug Mecca of Digiable Planets, Zion I, and Dr. Rubberfunk, and show off their musical pedigree with this excellent freebie mix (’bout an hour long) of hip-hop, funk, fonky hip-hop and all kinds of other good stuff.

альбома We Are To Answer я пока не выцепил, но топик пусть пока будет smile.gif
Ancient Astronauts - We Are To Answer [2009]

картинка, оставленная пользователем

MYSPACE

Ancient Astronauts - We Are To Answer
(CD) Eighteen Street Lounge, 2009-06-09

Tracklisting :
01. From The Sky
02. I Came Running
03. Classic feat. The Pharcyde
04. Dark Green Rod
05. A Hole To Swallow Us feat. Phat Old Mamas
06. Risin High feat. Raashan Ahmad
07. Lost in Marrakesh feat. Entropik
08. All of the Things You Do feat. Tippa Irie
09. Everybody
10. Seventh Planet
11. Oblivion feat. DJ Zeph & Azeem
12. Surfing The Silvatide feat. Bajka
13. Crescent Moon


Ссылка:
Their very name, "Ancient Astronauts," implies a mash-up of the distant past and the far future; traits exemplified in their melding of old school hip hop, funk, and dub reggae with forward-thinking flair and production technique. The Ancient Astronauts are Kabanjak and Dogu hailing from Cologne, Germany . . .via outer space! Coy with their true origins, the duo can only confirm that they returned to planet Earth in 2001 after traveling the musical cosmos for thousands of years.

Those familiar with the phenomenon of "ancient astronauts," a belief that extraterrestrial beings visited Earth in ancient times to mingle and trade ideas with early human civilizations, won't be surprised that upon returning this particular spaced-out duo quickly set up a terrestrial sound studio, a record label (Switchstance Recordings), and a successful production, remixing and DJ career dropping sound bombs all over the world.

Already having remixed for Fort Knox Five, Up Bustle & Out, Ladybug Mecca of Digable Planets, Zion I, and Dr. Rubberfunk, the Ancient Astronauts have linked up with a variety of new sonic collaborators including Bootie Brown and Imani of legendary hip hop group The Pharcyde, Azeem, Tippa Irie, Bajka, Phat Old Mamas, Ulf Stricker, Raashan Ahmad and Entropik to record their debut album We Are To Answer! A block-rockin' boom-bappin' sonic tour-de-force, We Are to Answer is a musical vision of life on Earth and beyond!
For fans of Hermitude, Cyne, Crown City Rockers.



Ссылка:
http://www.sendspace.pl/file/npZ6hrl3/
pass: discography





Это сообщение отредактировал Erianor - 29.06.09 в 1:29
LAST.FM
password: discography
Ancient Atronauts - We Are The Answer

картинка, оставленная пользователем

01. From The Sky
02. I Came Running
03. Classic (With The Pharcyde)
04. Dark Green Rod (With Ulf Stricker)
05. A Hole To Swallow Us (With Phat Old Mamas)
06. Risin High (With Raashan Ahmad)
07. Lost In Marrakesh (With Entropik)
08. All Of The Things You Do (With Tippa Irie)
09. Everybody
10. Seventh Planet Skit
11. Oblivion (With Azeem & DJ Zeph)
12. Surfing The Silvatide (With Bajka)
13. Crescent Moon

Цитата:
http://qooy.com/files/1HYCTZZ4/Ancient_Astronauts_-_We_Are_To_Answer.rar


Это сообщение отредактировал Isisdo - 29.06.09 в 1:31
BLM Refugeeswelcome LGBTQ Feminism
Politicians should wear sponsor jackets like Nascar drivers, then we know who owns them.
Ancient Astronauts - We Are To Answer [2009] [320 kbps]
Ссылка:
http://www.mediafire.com/?m2knojoztdy
LAST.FM
password: discography
Ancient Astronauts - HEART OF THE FUTURE [2009]
*.cue файл.

Что с ним делать.

0. копируем весь этот текст в блокнот, ппосле чего сохраняем его, и после меняем расшерение с "*.txt" на " *.cue " те должно получиться "Heart Of The Future_DJ Mix by Ancient Astronauts.cue"
1. Помещаем это файл в папку с этим миксом.
2. В принцепе можно открыать его к примеру AIMP'ом ( возможно и другими плеераом), и там уже будет все потреково, если это вариант не подходит то см. след пункт.
3. Качаем Medieval CUE Splitter
4. В открывшийся программе в нижнем левом углу жмём "разрезать" , после чего получаем каждый трэк в отдельности, предварительно можно "поиграться" с шаблоном тэгов.

Heart Of The Future_DJ Mix by Ancient Astronauts.cue

TITLE "Heart Of The Future"
PERFORMER "Ancient Astronauts"
FILE "Heart Of The Future_DJ Mix by Ancient Astronauts.mp3" MP3
TRACK 01 AUDIO
TITLE "Beatstalkers Anthem"
PERFORMER "The Beatstalkers"
INDEX 01 00:00:00
TRACK 02 AUDIO
TITLE "MCs Act Like They Don’t Know"
PERFORMER "KRS-1"
INDEX 01 01:36:50
TRACK 03 AUDIO
TITLE "I Wanna Make You Move feat. Anthony David"
PERFORMER "Freddie Cruger"
INDEX 01 05:16:50
TRACK 04 AUDIO
TITLE "Catatonia feat. Percee P & Wild Child"
PERFORMER "Connie Price & The Keystones"
INDEX 01 07:21:60
TRACK 05 AUDIO
TITLE "Edgelactic Bring The Family Back"
PERFORMER "The Beatstalkers"
INDEX 01 09:58:34
TRACK 06 AUDIO
TITLE "Classic feat. The Pharcyde"
PERFORMER "Ancient Astronauts"
INDEX 01 14:37:00
TRACK 07 AUDIO
TITLE "Insight feat. Asheru"
PERFORMER "Fort Knox 5"
INDEX 01 17:43:10
TRACK 08 AUDIO
TITLE "The Roc Boys Get Back"
PERFORMER "Jay’s Soul Connection"
INDEX 01 20:37:70
TRACK 09 AUDIO
TITLE "Funky Furious"
PERFORMER " DJ Aeon Seven"
INDEX 01 23:54:24
TRACK 10 AUDIO
TITLE "The Tide Is High"
PERFORMER "The Beatstalkers "
INDEX 01 28:03:00
TRACK 11 AUDIO
TITLE "7 Nation Army feat. Alice Russell (Grant Phabao Remix)"
PERFORMER "Nostalgia 77"
INDEX 01 31:32:60
TRACK 12 AUDIO
TITLE "Shine Eye Gal feat. Shabba Ranks (Chase The Remix)"
PERFORMER "Michael Rose"
INDEX 01 35:35:60
TRACK 13 AUDIO
TITLE "Don’t Worry ’bout Romie"
PERFORMER " Beenie Man vs. Bob Marley"
INDEX 01 39:40:20
TRACK 14 AUDIO
TITLE "Dukku Dukku feat. Shabba Ranks (The Beatstalkers Remix)"
PERFORMER " Keith & Tex"
INDEX 01 42:52:70
TRACK 15 AUDIO
TITLE "Tequilimba"
PERFORMER "Barrio Katz"
INDEX 01 45:23:20
TRACK 16 AUDIO
TITLE "Blowing Up The Spot (Ancient Astronauts Remix)"
PERFORMER "Fort Knox 5"
INDEX 01 47:37:70
TRACK 17 AUDIO
TITLE "Everybody"
PERFORMER "Ancient Astronauts"
INDEX 01 51:10:15
TRACK 18 AUDIO
TITLE "The Outsider"
PERFORMER " Lack Of Afro"
INDEX 01 55:05:28
TRACK 19 AUDIO
TITLE "Caffeine(DJ Format’s Getaway Remix)"
PERFORMER "The Quartertones"
INDEX 01 58:07:44
TRACK 20 AUDIO
TITLE "Heard It Through The Grapevine"
PERFORMER "The Beatstalkers"
INDEX 01 61:21:35
TRACK 21 AUDIO
TITLE "Keep On Looking (Kenny Dope Remix)"
PERFORMER "Sharon Jones & The Dap Kings"
INDEX 01 64:42:20
TRACK 22 AUDIO
TITLE "D’azour Cotaz(Ancient Astronauts Remix)"
PERFORMER "Timewarp Inc."
INDEX 01 69:30:00


Добавлено:
залейте
13. Crescent Moon в [320 kbps]
Ancient Astronauts - We Are To Answer [2009] [320 kbps]
Classic с The Pharcyde - оч крутой трек!

Добавлено:
ребят, может кто-нибудь альбом на рапиду или ifolder оформить?
We Are to Answer (2009)
Ссылка:
http://ifolder.ru/13019942


Это сообщение отредактировал danger_d - 08.07.09 в 23:57
пишу про фильмы у себя в телеграме https://t.me/kinosik
видео с концертиков которые я посетил @youtube
wonderfull hip-hap stuff
Великолепный мьюзик. Цепляет)
пишу про фильмы у себя в телеграме https://t.me/kinosik
видео с концертиков которые я посетил @youtube
залейте
13. Crescent Moon
Ancient Astronauts - We Are To Answer [2009] [320 kbps]
barrse
держи
Ссылка:
http://ifolder.ru/13039718
картинка, оставленная пользователем

Ссылка:
ARTiST....: Ancient Astronauts

TiTLE.....: Classic EP

GENRE.....: Hip-Hop

Cat.......: ESL 155 LABEL.........: Eighteenth Street Lounge Music US

YEAR......: 2009 RELEASE DATE..: 07.16.2009

SiZE......: 26,6 MB SOURCE........: WEB

TRACKS....: 03 ENCODER.......: Lame

LENGTH....: 11:37 min



QUALiTY...: 320kbps / 44,1Hz Full Stereo


T R A C K L i S T


01 classic (with the pharcyde) (remix) 03:23
02 classic (with the pharcyde) (dj brace remix) 03:12
03 what we came for 05:02



-----
TOTAL: 11:37 min


Ссылка:
http://www.megaupload.com/?d=SEH61KRS


thumb.gif
nice work guys,the music is too sweet thumb.gif
Ancient_Astronauts_-_Origins_Proton_Radio-SBD-11-22-2009

картинка, оставленная пользователем

Tracklist
картинка, оставленная пользователем


Ссылка:
http://narod.ru/disk/15317512000/AA_-_OPR-SBD-11-22-2009.rar.html


Waterfall Inside Me
Спасибо, музыка шикарная. thumb.gif

Этот топик читают:

77 ответов с 28.06.09 в 23:52
Назад в Underground & Abstract