картинка, оставленная пользователем


картинка, оставленная пользователем



This Or The Apocalypse - Monuments - 2008 - Lifeforce Records


картинка, оставленная пользователем

FLAC PART1
FLAC PART2
FLAC PART3
FLAC PART4
EAC LOG

Exact Audio Copy V0.99 prebeta 4 from 23. January 2008

EAC extraction logfile from 28. January 2009, 14:24

This Or The Apocalypse / Monuments

Used drive : TSSTcorpCDDVDW SH-S223Q Adapter: 3 ID: 0

Read mode : Secure
Utilize accurate stream : Yes
Defeat audio cache : Yes
Make use of C2 pointers : No

Read offset correction : 6
Overread into Lead-In and Lead-Out : No
Fill up missing offset samples with silence : Yes
Delete leading and trailing silent blocks : No
Null samples used in CRC calculations : Yes
Used interface : Installed external ASPI interface
Gap handling : Appended to previous track

Used output format : User Defined Encoder
Selected bitrate : 128 kBit/s
Quality : High
Add ID3 tag : No
Command line compressor : C:\Programme\Exact Audio Copy\flac-1.1.4-win\flac-1.1.4-win\bin\flac.exe
Additional command line options : -8 -A tukey(0.25) -A gauss(0.1875) -b 4096 -V -T "artist=%a" -T "title=%t" -T

"album=%g" -T "date=%y" -T "tracknumber=%n" -T "genre=%m" %s --sector-align


TOC of the extracted CD

Track | Start | Length | Start sector | End sector
---------------------------------------------------------
1 | 0:00.00 | 3:26.73 | 0 | 15522
2 | 3:26.73 | 4:10.43 | 15523 | 34315
3 | 7:37.41 | 4:53.50 | 34316 | 56340
4 | 12:31.16 | 4:00.62 | 56341 | 74402
5 | 16:32.03 | 4:32.58 | 74403 | 94860
6 | 21:04.61 | 4:46.66 | 94861 | 116376
7 | 25:51.52 | 3:45.12 | 116377 | 133263
8 | 29:36.64 | 3:06.33 | 133264 | 147246
9 | 32:43.22 | 4:11.17 | 147247 | 166088
10 | 36:54.39 | 6:30.48 | 166089 | 195386


Track 1

Filename C:\-files-\-eac-\-flac-\This Or The Apocalypse - Monuments - This Or The Apocalypse - No Horizons.wav

Pre-gap length 0:00:02.00

Peak level 100.0 %
Track quality 100.0 %
Test CRC BDE72FAC
Copy CRC BDE72FAC
Copy OK

Track 2

Filename C:\-files-\-eac-\-flac-\This Or The Apocalypse - Monuments - This Or The Apocalypse - Monuments.wav

Peak level 100.0 %
Track quality 100.0 %
Test CRC A9AE1C60
Copy CRC A9AE1C60
Copy OK

Track 3

Filename C:\-files-\-eac-\-flac-\This Or The Apocalypse - Monuments - This Or The Apocalypse - Two Wars.wav

Peak level 100.0 %
Track quality 100.0 %
Test CRC BD7DA07E
Copy CRC BD7DA07E
Copy OK

Track 4

Filename C:\-files-\-eac-\-flac-\This Or The Apocalypse - Monuments - This Or The Apocalypse - We Are Debt.wav

Peak level 100.0 %
Track quality 100.0 %
Test CRC 9689E528
Copy CRC 9689E528
Copy OK

Track 5

Filename C:\-files-\-eac-\-flac-\This Or The Apocalypse - Monuments - This Or The Apocalypse - Geist.wav

Peak level 100.0 %
Track quality 100.0 %
Test CRC 58E6541B
Copy CRC 58E6541B
Copy OK

Track 6

Filename C:\-files-\-eac-\-flac-\This Or The Apocalypse - Monuments - This Or The Apocalypse - Architeuthis.wav

Peak level 100.0 %
Track quality 99.9 %
Test CRC 86C251AD
Copy CRC 86C251AD
Copy OK

Track 7

Filename C:\-files-\-eac-\-flac-\This Or The Apocalypse - Monuments - This Or The Apocalypse - The Polymath.wav

Peak level 100.0 %
Track quality 100.0 %
Test CRC 42174DD6
Copy CRC 42174DD6
Copy OK

Track 8

Filename C:\-files-\-eac-\-flac-\This Or The Apocalypse - Monuments - This Or The Apocalypse - Memento Mori.wav

Peak level 100.0 %
Track quality 100.0 %
Test CRC CB412435
Copy CRC CB412435
Copy OK

Track 9

Filename C:\-files-\-eac-\-flac-\This Or The Apocalypse - Monuments - This Or The Apocalypse - Mauna Kea.wav

Peak level 100.0 %
Track quality 100.0 %
Test CRC F4364F20
Copy CRC F4364F20
Copy OK

Track 10

Filename C:\-files-\-eac-\-flac-\This Or The Apocalypse - Monuments - This Or The Apocalypse - Elegiac.wav

Peak level 100.0 %
Track quality 100.0 %
Test CRC A9FCAE49
Copy CRC A9FCAE49
Copy OK

No errors occurred

End of status report

V0
EAC LOG

Exact Audio Copy V0.99 prebeta 4 from 23. January 2008

EAC extraction logfile from 28. January 2009, 14:24

This Or The Apocalypse / Monuments

Used drive : TSSTcorpCDDVDW SH-S223Q Adapter: 3 ID: 0

Read mode : Secure
Utilize accurate stream : Yes
Defeat audio cache : Yes
Make use of C2 pointers : No

Read offset correction : 6
Overread into Lead-In and Lead-Out : No
Fill up missing offset samples with silence : Yes
Delete leading and trailing silent blocks : No
Null samples used in CRC calculations : Yes
Used interface : Installed external ASPI interface
Gap handling : Appended to previous track

Used output format : User Defined Encoder
Selected bitrate : 128 kBit/s
Quality : High
Add ID3 tag : No
Command line compressor : C:\Programme\Exact Audio Copy\Lame\lame.exe
Additional command line options : -V 0 --vbr-new --add-id3v2 --ignore-tag-errors --ta "%a" --tt "%t" --tg "%m" --tl "%g"

--ty "%y" --tn "%n" %s %d


TOC of the extracted CD

Track | Start | Length | Start sector | End sector
---------------------------------------------------------
1 | 0:00.00 | 3:26.73 | 0 | 15522
2 | 3:26.73 | 4:10.43 | 15523 | 34315
3 | 7:37.41 | 4:53.50 | 34316 | 56340
4 | 12:31.16 | 4:00.62 | 56341 | 74402
5 | 16:32.03 | 4:32.58 | 74403 | 94860
6 | 21:04.61 | 4:46.66 | 94861 | 116376
7 | 25:51.52 | 3:45.12 | 116377 | 133263
8 | 29:36.64 | 3:06.33 | 133264 | 147246
9 | 32:43.22 | 4:11.17 | 147247 | 166088
10 | 36:54.39 | 6:30.48 | 166089 | 195386


Track 1

Filename C:\-files-\-eac-\-v0-\This Or The Apocalypse - Monuments - This Or The Apocalypse - No Horizons.wav

Pre-gap length 0:00:02.00

Peak level 100.0 %
Track quality 100.0 %
Test CRC BDE72FAC
Copy CRC BDE72FAC
Copy OK

Track 2

Filename C:\-files-\-eac-\-v0-\This Or The Apocalypse - Monuments - This Or The Apocalypse - Monuments.wav

Peak level 100.0 %
Track quality 100.0 %
Test CRC A9AE1C60
Copy CRC A9AE1C60
Copy OK

Track 3

Filename C:\-files-\-eac-\-v0-\This Or The Apocalypse - Monuments - This Or The Apocalypse - Two Wars.wav

Peak level 100.0 %
Track quality 100.0 %
Test CRC BD7DA07E
Copy CRC BD7DA07E
Copy OK

Track 4

Filename C:\-files-\-eac-\-v0-\This Or The Apocalypse - Monuments - This Or The Apocalypse - We Are Debt.wav

Peak level 100.0 %
Track quality 100.0 %
Test CRC 9689E528
Copy CRC 9689E528
Copy OK

Track 5

Filename C:\-files-\-eac-\-v0-\This Or The Apocalypse - Monuments - This Or The Apocalypse - Geist.wav

Peak level 100.0 %
Track quality 100.0 %
Test CRC 58E6541B
Copy CRC 58E6541B
Copy OK

Track 6

Filename C:\-files-\-eac-\-v0-\This Or The Apocalypse - Monuments - This Or The Apocalypse - Architeuthis.wav

Peak level 100.0 %
Track quality 99.9 %
Test CRC 86C251AD
Copy CRC 86C251AD
Copy OK

Track 7

Filename C:\-files-\-eac-\-v0-\This Or The Apocalypse - Monuments - This Or The Apocalypse - The Polymath.wav

Peak level 100.0 %
Track quality 100.0 %
Test CRC 42174DD6
Copy CRC 42174DD6
Copy OK

Track 8

Filename C:\-files-\-eac-\-v0-\This Or The Apocalypse - Monuments - This Or The Apocalypse - Memento Mori.wav

Peak level 100.0 %
Track quality 100.0 %
Test CRC CB412435
Copy CRC CB412435
Copy OK

Track 9

Filename C:\-files-\-eac-\-v0-\This Or The Apocalypse - Monuments - This Or The Apocalypse - Mauna Kea.wav

Peak level 100.0 %
Track quality 100.0 %
Test CRC F4364F20
Copy CRC F4364F20
Copy OK

Track 10

Filename C:\-files-\-eac-\-v0-\This Or The Apocalypse - Monuments - This Or The Apocalypse - Elegiac.wav

Peak level 100.0 %
Track quality 100.0 %
Test CRC A9FCAE49
Copy CRC A9FCAE49
Copy OK

No errors occurred

End of status report

SCANS

This_Or_The_Apocalypse-Monuments-(Advance)-2008-FNT
RAPIDSHARE
FUNKYTORRENTS thanks to xmeatxsucksx
картинка, оставленная пользователем

This_Or_The_Apocalypse-Monuments-(Advance)-2008-FNT

Artist: This or the Apocalypse
Album: Monuments
Label: Lifeforce Records
Playtime: 43:20 min
Genre: Metal
URL: http://www.myspace.com/thisortheapocalypse
Rip date: 2008-08-20
Street date: 2008-09-16
Size: 69.16 MB
Type: Advance
Quality: 211 kbps / 4410kHz / Joint Stereo

Release Notes

Hailing from Lancaster, PA, THIS OR THE APOCALYPSE brings what can only be
regarded as "the thinking man's mosh" to the world with their juggernaut of
a debut release MONUMENTS! Brutal breakdowns intermingle themselves with
insanely intricate riffing, beautifully crafted musicianship and thought
provoking lyrical content!

For fans of AUGUST BURNS RED, SHAI HULUD and MISERY SIGNALS

Track List

01. no horizons ( 3:27)
02. monuments ( 4:10)
03. two wars ( 4:53)
04. we are debt ( 4:00)
05. geist ( 4:32)
06. architeuthis ( 4:46)
07. the polymath ( 3:45)
08. memento mori ( 3:06)
09. mauna kea ( 4:11)
10. elegiac ( 6:30)

yandex

Thanks a lot Psychrist! wink.gif
AMAZING!!! THANKS!!:)
бля, скорее Mathcore tongue.gif
классный альбом!
quiet powerful, thx. nice release
может кто последние 2 трека отдельно залить?
This_Or_The_Apocalypse-Monuments-(Advance)-2008-FNT

картинка, оставленная пользователем

Band……..: This Or The Apocalypse
Album…….: Monuments (Advance)
Year:…….: 2008
Quality…..: Lame/VBR/44.1kHz/J.Stereo
Source……: CDDA
Myspace…..: http://www.myspace.com/thisortheapocalypse
LastFM……: http://www.last.fm/music/This+Or+The+Apocalypse



Track List

01. no horizons ( 3:27)
02. monuments ( 4:10)
03. two wars ( 4:53)
04. we are debt ( 4:00)
05. geist ( 4:32)
06. architeuthis ( 4:46)
07. the polymath ( 3:45)
08. memento mori ( 3:06)
09. mauna kea ( 4:11)
10. elegiac ( 6:30)


NFO

Exhibiting a veteran-like display of confidence and focus, This Or The Apocalypse’s accelerated evolution redefines how bands come into their own. Taking flight alongside regional peers A Life Once Lost, This Day Forward and August Burns Red, TOTA tightrope walks between masterfully crafted time signatures, dense rock grooves and melodic atmosphere. Their music combines the precision and technical prowess of Meshuggah with the raw, emotive urgency of Misery Signals: A sound that is loud, compelling, and unique. As if the entity of the band emerged through natural selection over the members themselves, the band’s resilient DIY ethos prevails in everything they create. This Or The Apocalypse is now poised to unleash their most accomplished and refined work to date; Monuments, the follow-up to their epic 2006 full-length, Sentinels.


картинка, оставленная пользователем
картинка, оставленная пользователем
группа точно очень схожа с артистами указанными в первом посте, очень крутой техничный и одновременно меланхоличный металкор для любителей жанра thumb.gif
thx! вроде ничё так. thumb.gif
очень хороши...
но надоели быстро...
This Or The Apocalypse - Monuments [2008]

картинка, оставленная пользователем

Metalcore

Track List

01. no horizons ( 3:27)
02. monuments ( 4:10)
03. two wars ( 4:53)
04. we are debt ( 4:00)
05. geist ( 4:32)
06. architeuthis ( 4:46)
07. the polymath ( 3:45)
08. memento mori ( 3:06)
09. mauna kea ( 4:11)
10. elegiac ( 6:30)

http://altrock.ifolder.ru/7806473
Люблю слушать хороший и качественный рок.
Купить виниловые пластинки в Москве
картинка, оставленная пользователем


already posted... or am i drunk!?
you're not! has been....seems like people are just invariably re-upping/posting links from BYFN(2)
по-моему такая тема уже есть...

Этот топик читают:

243 ответов с 20.08.08 в 13:57
Назад в Emo / Hardcore